#TITLE:Flower Garden;
#SUBTITLE:;
#ARTIST:Unknown artist;
#TITLETRANSLIT:;
#SUBTITLETRANSLIT:;
#ARTISTTRANSLIT:;
#CREDIT:;
#BANNER:flowergardenbanner.png;
#BACKGROUND:flowergardenbg.png;
#LYRICSPATH:;
#CDTITLE:!cdtitle.gif;
#MUSIC:ayumi hamasaki - flower garden(1).mp3;
#OFFSET:0.000;
#SAMPLESTART:52.140;
#SAMPLELENGTH:24.460;
#SELECTABLE:YES;
#BPMS:0.000=130.000;
#STOPS:;
#BGCHANGES:;
// cache tags:
#FIRSTBEAT:1.000;
#LASTBEAT:337.000;
#SONGFILENAME:Songs/SS Ayu Style -Mini Pack-/Flower Garden/flowergarden.sm;
#HASMUSIC:1;
#HASBANNER:1;
#MUSICLENGTH:158.850;
// end cache tags

//---------------dance-single - ----------------
#NOTES:
     dance-single:
     :
     Hard:
     10:
     0.906,0.875,1.000,0.176,0.724,780.000,199.000,28.000,0.000,1.000:
0000
0000
0000
0000
0100
0010
0000
0010
0100
0000
0000
1000
0100
0000
0100
1000
,
0100
0010
0100
1000
0100
0010
0000
0010
0100
0000
1000
0100
0000
0100
1000
0000
,
0100
0010
0002
0000
0103
0010
0000
1000
0100
0000
0010
0001
0000
0010
0100
0000
,
1000
0100
0010
0001
0020
0000
0000
0000
1130
0000
0000
0000
1000
0100
0010
0001
,
0010
0100
1000
0010
0100
0001
2100
0000
0010
0000
0100
0000
3001
0010
0100
0000
,
1000
0100
1000
0000
0100
0010
0100
0000
0001
0010
0001
0000
0100
0010
1000
0000
,
0100
0010
0001
0000
0010
0100
1000
0000
0010
0100
0001
0000
0001
0010
0001
0000
,
0100
1000
0100
0000
0010
0100
0001
0000
1000
0010
0100
0000
0001
0010
0100
0000
,
0010
0100
1000
0000
0100
0010
0001
0000
0010
0001
0100
0000
0010
0100
1000
0000
,
0100
0010
1000
0000
0001
0100
0010
0000
0001
0010
0001
0000
0100
0010
1000
0000
,
0100
0010
0001
0010
0100
1000
0100
0010
,
0100
0010
0100
1000
0100
0010
0002
0000
0000
0000
0000
0000
0000
0103
0010
0000
,
0010
0100
1000
0100
0010
0001
0010
0000
1000
0000
0100
0000
0010
0000
0100
0000
,
0001
0010
0100
0000
0010
0100
0001
0010
,
0001
0100
0010
0000
1000
0100
0010
0001
,
0010
0001
0200
0000
0010
0002
0000
0003
,
0310
1000
0100
0010
0101
0110
0101
0000
,
1100
1010
0110
0000
0011
0101
0011
1010
,
0110
0000
0101
0000
0021
0000
0000
0000
1030
0200
0000
0000
0000
0000
0000
0000
,
0310
0100
0001
0010
0100
1000
0100
0010
,
0010
0000
0100
0100
0100
0100
0100
0000
1100
0000
1010
0000
0110
0000
0101
0000
,
0011
0101
0011
0000
1100
0101
0011
0101
,
1010
1100
1010
0000
0110
0101
0011
0101
,
0110
1100
2002
0000
0000
0000
0000
3003
,
0000
0000
0000
0000
1010
0110
0110
0000
,
0011
0110
0110
0000
1100
0110
0101
0011
,
0101
0000
1100
0000
1010
0000
0110
0000
0000
1100
0000
0000
2020
0000
0000
0000
,
3030
0000
0000
0000
1000
0100
0010
0001
0110
0100
1000
0001
0110
0100
1000
0001
,
0110
0100
1001
0100
0010
0000
1000
0000
0011
0000
0100
0000
0011
0000
0100
0000
,
1001
0010
1100
0001
0110
0001
1100
0010
,
1001
0010
0101
1000
0011
0100
1100
0010
,
0101
0010
0011
0100
0101
0010
1100
0010
,
0101
0000
0010
0000
1100
0000
0210
0010
0010
0010
0010
0010
0310
0100
0100
0100
,
0100
0100
0100
0100
0100
0010
0100
1000
0100
0000
0010
0100
0001
0010
0100
0000
,
0110
0000
0101
0001
0000
0000
1000
0100
0010
1000
0000
0001
0100
0010
0100
0000
,
0001
0000
0110
0100
0000
0000
1000
0100
0010
0001
0000
0100
0010
1000
0001
0000
,
0110
0000
1000
0011
0000
0000
1001
0000
0000
1100
0000
0000
0011
0000
0000
0101
,
0000
0000
0011
0000
0110
0000
1000
0001
0100
0010
0000
1000
0100
0010
1000
0000
,
0001
0000
0100
1000
0000
0000
0010
0100
0001
0010
0000
1000
0001
0010
1000
0100
,
0010
0000
0011
0011
0000
0000
0010
0100
0010
0100
0000
0010
0100
0010
0100
0000
,
1000
0000
1100
1000
0000
0000
0011
0000
0000
0101
0000
0000
1001
0000
0000
0110
,
0000
0000
0101
0010
0110
1000
0100
0010
1000
0001
0000
0010
0100
0001
0010
0000
,
0110
0000
0001
0010
0000
0000
1000
0010
0100
0001
0000
0001
0100
0010
0100
0000
,
1100
0000
1010
0100
0000
0000
0001
0100
0001
0100
0000
1000
0010
1000
0010
0000
,
0110
0000
0101
0010
0000
0000
1001
0000
0000
0011
0000
0000
0101
0000
0000
0101
,
0000
0000
1001
0000
1100
0000
1000
0000
0100
0010
0000
0000
0001
0010
0000
0100
,
1000
0100
0010
0100
1000
0000
0100
0000
0001
0010
0000
0000
0000
0000
0010
0100
,
1000
0001
0010
0001
0100
0000
1000
0000
0010
0100
0000
0000
0010
0100
0001
0010
,
0010
0001
0010
0010
0001
0000
0100
0000
0010
1000
0000
0000
0100
0010
1000
0001
,
0010
0100
1000
0000
1001
0000
0100
0000
1010
0110
0000
0000
0001
0010
0001
0100
,
0001
0100
0010
1000
0100
0000
0010
0000
0100
0010
0000
0000
0000
0000
1000
0000
,
0000
0000
0000
0010
0000
0000
1000
0000
0000
0100
0000
0000
0010
0000
0000
1000
0000
0000
0100
0000
0000
0000
0000
0000
0110
0000
0000
0101
0000
0000
0110
0000
0000
0000
0000
0000
1001
0000
0000
0000
0110
0000
0000
0000
0011
0000
0000
0000
,
0101
0000
0000
0000
1010
0000
0000
0000
0110
0000
0000
0000
1001
0000
0000
0000
0000
0000
1000
0000
0000
0000
0000
0000
0010
0000
0000
0100
0000
0000
0011
0000
0000
0000
0000
0000
0000
0000
0000
0000
0000
0000
0011
0000
0000
0000
0000
0000
,
0101
0000
0000
0000
0000
0000
0000
0000
1010
0000
0000
0000
0100
0000
0000
0000
0110
0000
0000
0000
0010
0000
0000
0000
0022
0000
0000
0000
0000
0000
0000
0000
0000
0000
0000
0000
0000
0000
0000
0000
0033
0000
0000
0000
0000
0000
0000
0000
0000
0000
0000
0000
0000
0000
0000
0000
1000
0100
0000
0000
0000
0000
0000
0000
,
0100
1000
0000
0010
0100
0001
0010
0000
1100
0000
1010
0000
0110
0000
0101
0000
,
0011
0110
1001
0000
1000
0010
0100
0001
,
0010
0100
0010
0000
1000
0010
0010
0100
,
0001
0010
0210
0000
0020
0000
0000
0000
,
0000
0000
0000
0330
1100
1010
0110
0000
,
0011
0101
2010
3000
0110
0011
0101
1001
,
0110
1001
1010
0210
0000
0310
1002
0000
,
0000
0000
0003
0000
0000
0000
1000
0100
0110
0001
0010
0100
1001
0100
0010
0001
,
1010
0100
1010
0000
1001
0000
0100
0000
0011
0000
0100
0000
1100
0000
0010
0000
,
0101
0001
1100
0010
0110
0001
0110
1000
,
1001
0010
0011
0100
1010
1000
1001
0010
,
0101
1000
0110
0001
1100
0010
0101
0010
,
1100
1000
0011
0100
1001
1000
0011
0100
,
1001
0010
1100
0010
0011
1000
1001
0010
,
1100
0100
0011
1000
1010
0100
0011
1000
,
1001
0100
0011
0100
1010
0100
0011
1000
,
0101
0010
1000
0100
0011
0100
1000
0000
0000
0000
0202
0000
0303
0000
0000
0010
,
1000
0100
0010
0001
0010
0100
1000
0000
0110
0000
1000
0000
0101
0000
0010
0000
,
1100
0000
0000
1000
0000
0000
0110
0000
0000
0001
0000
0000
1100
0000
0000
0010
0000
0000
1100
0000
0110
0000
0101
0000
,
0011
0101
1010
1001
0000
2020
0000
0000
3030
0000
0201
0000
,
0010
0000
0000
0000
0000
0000
0000
0000
0300
0000
0000
0000
0010
0000
0000
0000
0000
0000
1000
0000
0000
0100
0000
0000
0000
0000
0000
0100
0000
0000
1000
0000
0000
0100
0000
0000
0010
0000
0000
0001
0000
0000
0010
0000
0000
0100
0000
0000
,
1000
0100
0010
0001
0010
0100
0120
0000
0100
0000
0100
0000
0130
0000
1000
0100
,
0000
0100
0010
0001
0010
0100
1000
0100
0010
1000
0001
0100
0010
1000
0001
0100
,
0010
1000
0001
0100
0010
1000
0100
0010
0001
0100
0010
0000
0010
0100
0000
0100
,
0010
0000
1000
0000
0100
0000
0010
1000
0010
1000
0010
1000
0001
1000
0001
1000
,
0001
1000
0010
1000
0100
1000
0100
2000
0000
0000
0000
0000
0000
0000
0000
0000
,
3100
0010
0100
0000
0001
0010
0001
0000
0100
0010
1000
0000
0010
0100
0001
0000
,
1000
0010
0100
0000
0001
0010
0001
0000
0100
0010
1000
0000
0100
1000
0010
0000
,
0010
0100
0001
0000
0100
0010
1000
0000
0100
0001
0010
0000
0100
1000
0100
0000
,
0100
1000
0100
0000
0010
0100
0010
0000
0010
0100
0010
0000
0010
0001
0010
0000
,
0020
0030
0000
0000
;
